Sign in to follow this  
💗Abhijith💗

Sherlock Toms (2017) Malayalam DVDRip 800MB x264 AAC 5.1 E-sub - MBRHDRG

Recommended Posts

logo.png.b6bdb74ee3fc9744cfa16c774bc54806.png

PROUDLY PRESENTS

Sherlock Toms (2017)

Malayalam DVDRip 800MB x264 AAC 5.1 E-sub 

MBRHDRG

MV5BZjUzNzgxMGUtOTI2My00MWM0LThlZjQtNjJkNDIwMzdkODhmXkEyXkFqcGdeQXVyMjkxNzQ1NDI@._V1_.jpg

Quote

 

Quote

SOURCE :- DVD9/MBRHDRG/Desireleasers

General
Format                                   : Matroska
Format version                           : Version 2
File size                                : 797 MiB
Duration                                 : 2 h 26 min
Overall bit rate                         : 761 kb/s

Video
ID                                       : 1
Format                                   : AVC
Format/Info                              : Advanced Video Codec
Format profile                           : [email protected]
Format settings, CABAC                   : Yes
Format settings, ReFrames                : 4 frames
Codec ID                                 : V_MPEG4/ISO/AVC
Duration                                 : 2 h 26 min
Bit rate                                 : 595 kb/s
Width                                    : 720 pixels
Height                                   : 304 pixels
Display aspect ratio                     : 2.35:1
Frame rate mode                          : Constant
Frame rate                               : 23.976 (24000/1001) FPS
Color space                              : YUV
Chroma subsampling                       : 4:2:0
Bit depth                                : 8 bits
Scan type                                : Progressive
Bits/(Pixel*Frame)                       : 0.113
Stream size                              : 623 MiB (78%)
Writing library                          : x264 core 148 r2638 7599210
Default                                  : Yes
Forced                                   : No

Audio
ID                                       : 2
Format                                   : AAC
Format/Info                              : Advanced Audio Codec
Format profile                           : HE-AAC / LC
Codec ID                                 : A_AAC
Duration                                 : 2 h 26 min
Bit rate                                 : 164 kb/s
Channel(s)                               : 6 channels
Channel positions                        : Front: L C R, Side: L R, LFE
Sampling rate                            : 48.0 kHz / 24.0 kHz
Frame rate                               : 23.438 FPS (1024 spf)
Compression mode                         : Lossy
Delay relative to video                  : 31 ms
Stream size                              : 171 MiB (22%)
Default                                  : Yes
Forced                                   : No

Text
ID                                       : 3
Format                                   : UTF-8
Codec ID                                 : S_TEXT/UTF8
Codec ID/Info                            : UTF-8 Plain Text
Duration                                 : 2 h 23 min
Bit rate                                 : 82 b/s
Count of elements                        : 2575
Stream size                              : 86.9 KiB (0%)
Default                                  : Yes
Forced                                   : No

Watch Online

Quote

Download Links

Quote

 

~Extreme Seeding Started~
Please click 'Thanks' as a token of appreciation of our effort.

QnC2C27.png

[ZippyMovieZ.FUN] Sherlock Toms (2017) Malayalam DVDRip 800MB x264 AAC 5.1 E-sub - MBRHDRG.torrent

Magnet link

PLEASE SHARE WITH PROPER CREDITS TO MBRHDRG/DESIRELEASERS

Share this post


Link to post
Share on other sites
Loading...


Create an account or sign in to comment

You need to be a member in order to leave a comment

Create an account

Sign up for a new account in our community. It's easy!

Register a new account

Sign in

Already have an account? Sign in here.

Sign In Now

Sign in to follow this