Sign in to follow this  
Vidya Vox

Thondimuthalum Driksakshiyum (2017) Download Malayalam Movie BRRip 720p x264 AAC 5.1 E-Sub-ZERG

Recommended Posts

Thondimuthalum Driksakshiyum (2017) Download Malayalam Movie BRRip 720p x264 AAC 5.1 E-Sub-ZERG

8d883c73a2dd8a955e2c3ac22669044c.jpg

Thondimuthalum Driksakshiyum
2017 - 720P - BDRiP - x264 - AAC 5.1 - Chapters

thondimuthalum-dhriksakshiyum.thumb.jpg.3ed654362bc7d5b4af2a37f411ef8525.jpg

MEDIA INFO

Quote

SOURCE :- BD50/MBRHDRG/Desireleasers

Video
ID                                       : 1
Format                                   : AVC
Format/Info                              : Advanced Video Codec
Format profile                           : [email protected]
Format settings, CABAC                   : Yes
Format settings, ReFrames                : 4 frames
Codec ID                                 : V_MPEG4/ISO/AVC
Duration                                 : 2 h 15 min
Bit rate                                 : 949 kb/s
Width                                    : 1 280 pixels
Height                                   : 528 pixels
Display aspect ratio                     : 2.40:1
Original display aspect ratio            : 2.40:1
Frame rate mode                          : Constant
Frame rate                               : 24.000 FPS
Color space                              : YUV
Chroma subsampling                       : 4:2:0
Bit depth                                : 8 bits
Scan type                                : Progressive
Bits/(Pixel*Frame)                       : 0.059
Stream size                              : 909 MiB (78%)
Audio
ID : 2
Format : AAC
Format/Info : Advanced Audio Codec
Format profile : LC
Codec ID : A_AAC-2
Duration : 2 h 15 min
Bit rate : 256 kb/s
Channel(s) : 6 channels
Channel positions : Front: L C R, Side: L R, LFE
Sampling rate : 48.0 kHz
Frame rate : 46.875 FPS (1024 SPF)
Compression mode : Lossy
Delay relative to video : 9 ms
Stream size : 247 MiB (12%)
Title : MBRHDRG
Language : Malayalam
Default : Yes
Forced : No

SCREENS

Quote

Watch Online

Quote

Download Links

Quote

~Extreme Seeding Started~
Please click 'Thanks' as a token of appreciation of our effort.

QnC2C27.png

[ZippyMovieZ.Fun] Thondimuthalum Driksakshiyum (2017) Malayalam BRRip 720p x264 AAC 5.1 E-Sub-ZERG.torrent

Magnet Link

  • Like 1
  • Thanks 1

Share this post


Link to post
Share on other sites
Loading...


Create an account or sign in to comment

You need to be a member in order to leave a comment

Create an account

Sign up for a new account in our community. It's easy!

Register a new account

Sign in

Already have an account? Sign in here.

Sign In Now

Sign in to follow this