Sign in to follow this  
💗Abhijith💗

Thondimuthalum Driksakshiyum (2017) Malayalam Blu-Ray 1080p x264 AAC 5.1 E-sub - MBRHDRG

Recommended Posts

logo.png.1315fb461159fd1e048987df459e0b70.png

PROUDLY PRESENTS

Thondimuthalum Driksakshiyum (2017) Malayalam Blu-Ray 1080p x264 AAC 5.1 E-sub - MBRHDRG

thondimuthalum-dhriksakshiyum.thumb.jpg.3ed654362bc7d5b4af2a37f411ef8525.jpg

MEDIA INFO

Quote

SOURCE :- BD50/MBRHDRG/Desireleasers

Format : Matroska
Format version : Version 2
File size : 2.00 GiB
Duration : 2 h 15 min
Overall bit rate : 2 113 kb/s
Video
ID : 1
Format : AVC
Format/Info : Advanced Video Codec
Format profile : [email protected]
Format settings : CABAC / 4 Ref Frames
Format settings, CABAC : Yes
Format settings, RefFrames : 4 frames
Codec ID : V_MPEG4/ISO/AVC
Duration : 2 h 15 min
Bit rate : 1 856 kb/s
Width : 1 920 pixels
Height : 800 pixels
Display aspect ratio : 2.40:1
Frame rate mode : Constant
Frame rate : 24.000 FPS
Color space : YUV
Chroma subsampling : 4:2:0
Bit depth : 8 bits
Scan type : Progressive
Bits/(Pixel*Frame) : 0.050
Stream size : 1.75 GiB (88%)
Audio
ID : 2
Format : AAC
Format/Info : Advanced Audio Codec
Format profile : LC
Codec ID : A_AAC-2
Duration : 2 h 15 min
Bit rate : 256 kb/s
Channel(s) : 6 channels
Channel positions : Front: L C R, Side: L R, LFE
Sampling rate : 48.0 kHz
Frame rate : 46.875 FPS (1024 SPF)
Compression mode : Lossy
Delay relative to video : 9 ms
Stream size : 247 MiB (12%)
Title : MBRHDRG
Language : Malayalam
Default : Yes
Forced : No

SCREENS

Quote

Watch Online

Quote

Download Links

Quote

~Extreme Seeding Started~
Please click 'Thanks' as a token of appreciation of our effort.

QnC2C27.png

[ZippyMovieZ.Fun] Thondimuthalum Driksakshiyum (2017) Malayalam BRRip 1080p x264 AAC 5.1 E-Sub-MBRHDRG.torrent

Magnet Link

  • Thanks 1

Share this post


Link to post
Share on other sites
Loading...


Create an account or sign in to comment

You need to be a member in order to leave a comment

Create an account

Sign up for a new account in our community. It's easy!

Register a new account

Sign in

Already have an account? Sign in here.

Sign In Now

Sign in to follow this