~ Hacker ~

Thrissivaperoor Kliptham (2017) Malayalam HDTV-Rip - x264 1CD MP3 700MB

Recommended Posts

Thrissivaperoor Kliptham (2017) Malayalam HDTV-Rip -  x264 1CD MP3 700MB

Thrissivaperoor-Kliptham-Malayalam-2017-

a14ce1c36cfdff2599d4a1667b997a37.png
889f57cf957588ca62a66e2221d76873.png
6b7f589b3b11ff79110d748d57d096b2.png
b30a79cc768ad1124c632e866ccb7151.png
efb340a3ca73923158f76edc44c375ad.png
10f7cddbac1b5ec9dabf78143949be56.png

Quote

Video
ID                                       : 1
Format                                   : AVC
Format/Info                              : Advanced Video Codec
Format profile                           : [email protected]
Format settings                          : CABAC / 4 Ref Frames
Format settings, CABAC                   : Yes
Format settings, RefFrames               : 4 frames
Codec ID                                 : V_MPEG4/ISO/AVC
Duration                                 : 2 h 14 min
Bit rate                                 : 638 kb/s
Width                                    : 720 pixels
Height                                   : 304 pixels
Display aspect ratio                     : 2.35:1
Frame rate mode                          : Constant
Frame rate                               : 25.000 FPS
Color space                              : YUV
Chroma subsampling                       : 4:2:0
Bit depth                                : 8 bits
Scan type                                : Progressive
Bits/(Pixel*Frame)                       : 0.117
Stream size                              : 615 MiB (87%)
Title                                    : www.zippymoviez.xyz
Language                                 : Malayalam
Default                                  : Yes
Forced                                   : No

Audio
ID                                       : 2
Format                                   : MPEG Audio
Format version                           : Version 1
Format profile                           : Layer 3
Format settings                          : Joint stereo / MS Stereo
Mode                                     : Joint stereo
Mode extension                           : MS Stereo
Codec ID                                 : A_MPEG/L3
Codec ID/Hint                            : MP3
Duration                                 : 2 h 14 min
Bit rate mode                            : Variable
Bit rate                                 : 96.0 kb/s
Channel(s)                               : 2 channels
Sampling rate                            : 44.1 kHz
Frame rate                               : 38.281 FPS (1152 SPF)
Compression mode                         : Lossy
Stream size                              : 93.2 MiB (13%)
Title                                    : www.zippymoviez.xyz
Writing library                          : LAME3.99r
Encoding settings                        : -m j -V 4 -q 3 -lowpass 15.1 --abr 96
Language                                 : Malayalam
Default                                  : Yes
Forced                                   : No

Watch Online

Quote

Download Links

Quote

~Extreme Seeding Started~
Please click 'Thanks' as a token of appreciation of our effort.

QnC2C27.png

www.zippymoviez.xyz - Thrissivaperoor Kliptham (2017) Malayalam HDTV-Rip - x264 1CD MP3 700MB.mkv.torrent

Magnet Link

IvRFDeI.gif

 

  • Like 1

Share this post


Link to post
Share on other sites
Loading...


Create an account or sign in to comment

You need to be a member in order to leave a comment

Create an account

Sign up for a new account in our community. It's easy!

Register a new account

Sign in

Already have an account? Sign in here.

Sign In Now