Search the Community

Showing results for tags 'stephanie'.

More search options

  • Search By Tags

    Type tags separated by commas.
  • Search By Author

Content Type


  • General Lounge
    • Announcements and Updates
    • Member Introductions
    • Help & FAQ
    • Post your Movie Requests
    • Ethical Hacking Tricks and Internet Tricks
  • Free Online Movies
    • HollyWood Movies
    • BollyWood Movies
    • Malayalam Movies
    • Tamil Movies
    • Telugu Movies
    • Kannada Movies
    • Other Movies
  • TV Shows
    • English TV Shows
  • Ebooks
    • Tips ,Tutorials and E-Books
  • Adult Section
    • XXX HD Videos
    • XXX Adult Movies
    • XXX Comics and Magazine
  • Music Database
    • English Albums
    • English Collections
  • Premium Accounts And Premium Browser
    • Premium Account And Premium Browser
    • Free 18+ Site Premium Accounts
  • Games & SoftWare
    • PC Games
    • PC Softwares
    • Mac OSX Applications
  • Mobile Zone
    • Android Applications
    • Android Games
    • Android Themes / Live Wallpapers
    • Iphone Applications
  • Gallery
    • Actress Gallery
    • HD Wallpapers
  • WebMaster Source
    • Vbulletin
    • Wordpress
    • Invision Power Board
    • PHP / HTML scripts
  • Old Movie's [ZippyMovieZ.XYZ] Ee Bhargavi Nilayam - Full Length Malayalam


  • Records


  • Community Calendar


  • Files
  • Greed's arjun reddy 2017 telugu 400MB scr
  • ALL IN ONE's Files

Found 5 results

  1. Stephanie Cotta: Ultimate Newborn Photography English | .MP4 | h264, yuv420p, 1920x1080, 23.98 fps(r) | aac, 48000 Hz, stereo | 6.03 GB Genre: E-learning The Ultimate Guide For Newborn Photography & Posing Tutorial With Stephanie Cotta Photo Shoot Video Chapters Part 0- Welcome To The Tutorial Part 1 - The Studio Setup Part 2 - The Hands Together Pose Part 3 - The Side Stretch Pose Part 4 - Transitioning to Prop Shot pt I Part 5 - The Side Folded Arms Pose Part 6 - The Prop Shot pt. II Part 7 - The Chin Up Pose Part 8 - The Side Chin Up and Line Em Up Pose Part 9 - The Bottoms Up Pose Part 10 - Side Stretch Pose Baby II Part 11 - The Prop Shot Pose pt. III Part 12 - The Chin Up Pose Part 13- The Prop Shot Pose IV Part 14 - The Wrap Shot Part 15 - Shoot Macro
  2. Aleksandar M. Vlahovic, Emir Q. Haxhija, "Pediatric and Adolescent Plastic Surgery for the Clinician" 2017 | ISBN-10: 3319560034 | 226 pages | EPUB | 22 MB This book describes plastic surgery treatments in children for e.g. cleft lip and palate, polydactyly and syndactyly, pigment lesions, benign and malign skin and soft tissue tumors, and vascular anomalies. Every chapter starts with a short introduction, followed by sections on patient evaluation, treatment options and postoperative care. Supporting images and pitfalls are also included. Based on the authors experience, the book offers pediatric plastic surgeons a valuable guide in their everyday work, while also introducing interested practitioners to the field. Pediatric plastic surgery is a specific field of surgery which includes reconstructive and aesthetic-cosmetic procedures in children. The majority of procedures are reconstructive in nature, making aesthetic considerations especially important. As aesthetic procedures in children are not so frequent, only a small group of clinicians are familiar with this part of surgery. DOWNLOAD (Buy premium account for maximum speed and resuming ability) [url][/url] [url][/url] [url][/url]
  3. MyFriendsHotGirl - Stephanie West

    Format : MPEG-4 Format profile : Base Media Codec ID : isom File size : 185 MiB Duration : 21mn 8s Overall bit rate : 1 223 Kbps Writing application : Lavf54.29.104 Video ID : 1 Format : AVC Format/Info : Advanced Video Codec Format profile : [email protected] Format settings, CABAC : Yes Format settings, ReFrames : 4 frames Codec ID : avc1 Codec ID/Info : Advanced Video Coding Duration : 21mn 8s Bit rate : 900 Kbps Width : 640 pixels Height : 360 pixels Display aspect ratio : 16:9 Frame rate mode : Constant Frame rate : 23.976 fps Color space : YUV Chroma subsampling : 4:2:0 Bit depth : 8 bits Scan type : Progressive Bits/(Pixel*Frame) : 0.163 Stream size : 136 MiB (74%) Writing library : x264 core 136 Audio ID : 2 Format : AAC Format/Info : Advanced Audio Codec Format profile : LC Codec ID : 40 Duration : 21mn 8s Bit rate mode : Constant Bit rate : 317 Kbps Channel(s) : 2 channels Channel positions : Front: L R Sampling rate : 48.0 KHz Compression mode : Lossy Stream size : 48.0 MiB (26%) Language : English Download:
  4. Barry Allen wakes up nine months after he was struck by lightning and discovers that the bolt gave him the power of super speed. With his new team and powers, Barry becomes "The Flash" and fights crime in Central City. Runtime: 45 minutes Network: The CW Genre: Action | Adventure | Drama The Flash 2014 S04E06 iNTERNAL 720p WEB x264-BAMBOOZLE 1.48 GB
  5. Description: Total Uninstall is a complete uninstaller which include two working modes: "Installed programs" module analyze existing installations and create a log with installation changes. It is able to uninstall applications even without the help of supplied Add/Remove program. "Monitored programs" module helps to monitor any changes made to your system during the installation of a new application. It allows you to perform a complete uninstall without having to rely on the supplied Add/Remove program which can leave files or changes behind. Features: Accurate analyzes installed programs to uninstall them completely Total Uninstall utility can monitor new installations Clean the system safely Uninstall software from the following operating systems with native support Release Name: Total.Uninstall.Professional.v6.20.1.475.Multilingual-P2P Size: 39.4 MB HOMEPAGE: